» » Kelly Willard - Blame It On the One I Love
MP3: 1611 mb

Kelly Willard - Blame It On the One I Love download mp3

Kelly Willard - Blame It On the One I Love download mp3
  • Performer: Kelly Willard
  • Title: Blame It On the One I Love
  • Category: Rock / Soul & Funk / Pop
  • Country: US
  • Date of release: 2012
  • Music style: AOR, Soft Rock, Gospel
  • Rating: 4.3
  • Votes 100
  • Formats AIFF DTS VOX MOD AU MIDI AA
Kelly Willard - Blame It On the One I Love download mp3

Tracklist

1 A Friend So True
2 You´re Welcome Here
3 Dear Jesus
4 Similes
5 Cares Chorus
6 Me, Myself In Christ
7 Oh, Gentle Love
8 Blame It On The One I Love
9 Walk With Me
10 Pass The Salt
11 Dad Song
12 Rest
13 Heart´s Prayer

Credits

  • Producer, Engineer, Mixed By – Jonathan David Brown

Notes

Originally released 1978 on Maranathal Music.

Series: Light Mellow´s Choice 109.

Barcode and Other Identifiers

  • Barcode: 4540399260426

Other versions

Category Artist Title (Format) Label Category Country Year
MM0047A Kelly Willard Blame It On The One I Love! ‎(LP) Maranatha! Music MM0047A US 1978
77-047 Kelly Willard Blame It On The One I Love ‎(LP, Album) Maranatha! Music 77-047 US Unknown


Comments: (1)
Ungall
foobar2000 1.3.17 / Dynamic Range Meter 1.1.1log date: 2018-07-02 22:02:07--------------------------------------------------------------------------------Analyzed: Kelly Willard / Blame It On The One I Love [JP 2012 CD]--------------------------------------------------------------------------------DR Peak RMS Duration Track--------------------------------------------------------------------------------DR10 -0.01 dB -13.43 dB 2:55 01-A Friend So TrueDR12 -0.23 dB -15.55 dB 4:11 02-You`re Welcome HereDR12 -0.01 dB -14.20 dB 2:05 03-Dear JesusDR11 -0.01 dB -12.85 dB 2:25 04-SimilesDR11 -0.01 dB -15.00 dB 3:05 05-Cares ChorusDR12 -0.01 dB -14.98 dB 1:49 06-Me, Myself In ChristDR11 -0.01 dB -14.74 dB 4:04 07-Oh, Gentle LoveDR9 -0.01 dB -11.57 dB 3:07 08-Blame It On The One I LoveDR9 -0.01 dB -12.72 dB 3:25 09-Walk With MeDR11 -0.01 dB -12.62 dB 2:46 10-Pass The SaltDR11 -0.01 dB -15.13 dB 2:58 11-Dad SongDR10 -0.01 dB -12.85 dB 4:47 12-RestDR11 -0.01 dB -13.10 dB 2:54 13-Heart`s Prayer--------------------------------------------------------------------------------Number of tracks: 13Official DR value: DR11Samplerate: 44100 HzChannels: 2Bits per sample: 16Bitrate: 948 kbpsCodec: ALAC================================================================================
Related {tile} MP3 albums:
Contacts | Privacy Policy | DMCA
All rights reserved.
MP3.pro-tools.eu © 2018-2019